Counter

Monday, February 18, 2013

DOWNLOAD: MJ & Friends - "What More Can I Give" [Official Video] - NBC Version - Enhanced

So as I have seen the "Making Of" this video some days ago I instatly thought about the official video. It took me a while to find it as most of the links here are dead.

I used the 2003 edit of the song to dub the video, as the audio was better quality than in the video I found. And also edited a bit the video. (mostly deblocking, denoising and reduction of some of the red midtones)

Also, I added a ".sub" file so you can read the lyrics while the video is playing.


   

Format                                   : MPEG-PS
File size                                : 198 MiB
Duration                                 : 3mn 36s
Overall bit rate mode                    : Variable
Overall bit rate                         : 7 679 Kbps


Video
ID                                       : 224 (0xE0)
Format                                   : MPEG Video
Format version                           : Version 2
Format profile                           : Main@Main
Format settings, BVOP                    : Yes
Format settings, Matrix                  : Default
Format settings, GOP                     : M=3, N=12
Duration                                 : 3mn 36s
Bit rate mode                            : Variable
Bit rate                                 : 5 990 Kbps
Maximum bit rate                         : 9 500 Kbps
Width                                    : 720 pixels
Height                                   : 576 pixels
Display aspect ratio                     : 4:3
Frame rate                               : 25.000 fps
Standard                                 : PAL
Color space                              : YUV
Chroma subsampling                       : 4:2:0
Bit depth                                : 8 bits
Scan type                                : Interlaced
Scan order                               : Top Field First
Compression mode                         : Lossy
Bits/(Pixel*Frame)                       : 0.578
Stream size                              : 154 MiB (78%)


Audio
ID                                       : 189 (0xBD)-160 (0xA0)
Format                                   : PCM
Format settings, Endianness              : Big
Format settings, Sign                    : Signed
Muxing mode                              : DVD-Video
Duration                                 : 3mn 36s
Bit rate mode                            : Constant
Bit rate                                 : 1 536 Kbps
Channel(s)                               : 2 channels
Sampling rate                            : 48.0 KHz
Bit depth                                : 16 bits
Stream size                              : 39.6 MiB (20%) 



No comments:

Post a Comment