Counter

Thursday, August 23, 2012

Bad Tour Live Los Angeles 1989 - Promo Footage

Bad Tour Live Los Angeles 1989 - Promo Footage

Format : MPEG-4Format profile : Base Media / Version 2
Codec ID : mp42
File size : 99.7 MiB
Duration : 12mn 21s
Overall bit rate : 1 127 Kbps
Encoded date : UTC 2012-08-23 15:30:14
Tagged date : UTC 2012-08-23 15:30:14


Video
ID : 2
Format : AVC
Format/Info : Advanced Video Codec
Format profile : Main@L3.0
Format settings, CABAC : Yes
Format settings, ReFrames : 5 frames
Codec ID : avc1
Codec ID/Info : Advanced Video Coding
Duration : 12mn 21s
Bit rate mode : Variable
Bit rate : 995 Kbps
Width : 480 pixels
Height : 360 pixels
Display aspect ratio : 4:3
Frame rate mode : Constant
Frame rate : 29.970 fps
Standard : NTSC
Color space : YUV
Chroma subsampling : 4:2:0
Bit depth : 8 bits
Scan type : Progressive
Bits/(Pixel*Frame) : 0.192
Stream size : 88.0 MiB (88%)
Language : English
Encoded date : UTC 2012-08-23 15:30:14
Tagged date : UTC 2012-08-23 15:30:14


Audio
ID : 1
Format : AAC
Format/Info : Advanced Audio Codec
Format profile : LC
Codec ID : 40
Duration : 12mn 21s
Bit rate mode : Constant
Bit rate : 128 Kbps
Channel(s) : 2 channels
Channel positions : Front: L R
Sampling rate : 44.1 KHz
Compression mode : Lossy
Stream size : 11.3 MiB (11%)
Language : English
Encoded date : UTC 2012-08-23 15:30:14
Tagged date : UTC 2012-08-23 15:30:14

Comparison Screens:




Download link: http://www.mediafire.com/?6g63s55h9tf49sc


YouTube link:


Best regards,
Dorian

1 comment: